eztv.tf | Monday 8th of October 2018 02:02 AM ET
Search: or 
 

Autopsy The Last Hours Of S07E26 Barry White HDTV x264-eSc EZTV

Episode Breakdown
Autopsy: The Last Hours of
Autopsy: The Last Hours of TV Show S07E26

Season: 7
Episode: 26
Air Date: 6 October, 2018
Download Links
     Torrent Download     Magnet Download
Added 8 hours ago by eztv (verified).
Tracker Statistics
Seeds: 74
Peers: 16
Stats generated @ 02:02 on 8th Oct 2018
Torrent Info
Torrent File: Autopsy.The.Last.Hours.Of.S07E26.Barry.White.HDTV.x264-eSc[eztv].mkv
Torrent Hash: D59693B4F92C30B4FBA161E8C407FBE7645EEF9E
Filesize: 325.50 MB
Released: 7th Oct 2018

File Format: MKV (Matroska)
Resolution: 720x404 px
Aspect Ratio: 16:9

Autopsy: The Last Hours of S07E26 - Barry White

Summary:
There is no summary description for this episode yet.


Autopsy The Last Hours Of S07E26 Barry White HDTV x264-eSc EZTV
Autopsy: The Last Hours of S7E26 Screenshot
[header]



Celebrity fact and fiction are forever separated as Autopsy: The Last Hours Of... reveals the truth behind the controversial deaths of some of the most famous celebrities. The sudden and tragic passing of these global mega-stars sent the world into a frenzy fueled by hearsay and rumor. Now crucial medical evidence gained from the actual autopsies explains what killed the stars and reveals how they died, finally putting an end to the speculation.

http://www.tvmaze.com/shows/4959/autopsy-the-last-hours-of

Cast

Dr. Richard Shepherd ... Forensic Pathologist
Anjula Mutanda ... Psychologist
Eric Meyers ... Narrator
Iain Glen ... Narrator









Infomation


General
Format                                   : Matroska
Format version                           : Version 4 / Version 2
File size                                : 326 MiB
Duration                                 : 44 min 23 s
Overall bit rate                         : 1 025 kb/s
Encoded date                             : UTC 2018-10-07 20:39:01
Writing application                      : mkvmerge v22.0.0 ('At The End Of The World') 64-bit
Writing library                          : libebml v1.3.5 + libmatroska v1.4.8

Video
ID                                       : 1
Format                                   : AVC
Format/Info                              : Advanced Video Codec
Format profile                           : [email protected]
Format settings                          : CABAC / 4 Ref Frames
Format settings, CABAC                   : Yes
Format settings, RefFrames               : 4 frames
Codec ID                                 : V_MPEG4/ISO/AVC
Duration                                 : 44 min 23 s
Bit rate                                 : 895 kb/s
Width                                    : 720 pixels
Height                                   : 404 pixels
Display aspect ratio                     : 16:9
Original display aspect ratio            : 16:9
Frame rate mode                          : Constant
Frame rate                               : 29.970 (30000/1001) FPS
Color space                              : YUV
Chroma subsampling                       : 4:2:0
Bit depth                                : 8 bits
Scan type                                : Progressive
Bits/(Pixel*Frame)                       : 0.103
Stream size                              : 284 MiB (87%)
Writing library                          : x264 core 142 r2479 dd79a61
Encoding settings                        : cabac=1 / ref=3 / deblock=1:0:0 / analyse=0x3:0x113 / me=hex / subme=7 / psy=1 / psy_rd=1.00:0.00 / mixed_ref=1 / me_range=16 / chroma_me=1 / trellis=1 / 8x8dct=1 / cqm=0 / deadzone=21,11 / fast_pskip=1 / chroma_qp_offset=-2 / threads=12 / lookahead_threads=2 / sliced_threads=0 / nr=0 / decimate=1 / interlaced=0 / bluray_compat=0 / constrained_intra=0 / bframes=3 / b_pyramid=2 / b_adapt=1 / b_bias=0 / direct=1 / weightb=1 / open_gop=0 / weightp=2 / keyint=300 / keyint_min=30 / scenecut=40 / intra_refresh=0 / rc_lookahead=40 / rc=crf / mbtree=1 / crf=18.0 / qcomp=0.60 / qpmin=0 / qpmax=69 / qpstep=4 / vbv_maxrate=17500 / vbv_bufsize=17500 / crf_max=0.0 / nal_hrd=none / filler=0 / ip_ratio=1.40 / aq=1:1.00
Default                                  : Yes
Forced                                   : No
Color range                              : Limited
Color primaries                          : BT.709
Transfer characteristics                 : BT.709
Matrix coefficients                      : BT.709

Audio
ID                                       : 2
Format                                   : AAC
Format/Info                              : Advanced Audio Codec
Format profile                           : LC
Codec ID                                 : A_AAC-2
Duration                                 : 44 min 23 s
Bit rate                                 : 128 kb/s
Channel(s)                               : 2 channels
Channel positions                        : Front: L R
Sampling rate                            : 48.0 kHz
Frame rate                               : 46.875 FPS (1024 SPF)
Compression mode                         : Lossy
Delay relative to video                  : -67 ms
Stream size                              : 40.6 MiB (12%)
Language                                 : English
Default                                  : Yes
Forced                                   : No



[footer]
ssl  EZTV RSS EZTV Status | EZTV API | DMCA: [email protected]
Sitemap